#TITLE:the WORLD;
#SUBTITLE:- Death Note 1st Opening;
#ARTIST:Nightmare;
#TITLETRANSLIT:;
#SUBTITLETRANSLIT:;
#ARTISTTRANSLIT:;
#CREDIT:Asahina-san;
#BANNER:videobanner.avi;
#BACKGROUND:the WORLD.png;
#LYRICSPATH:The WORLD.lrc;
#CDTITLE:Asahina-San.png;
#MUSIC:The WORLD.mp3;
#OFFSET:1.150;
#SAMPLESTART:2.600;
#SAMPLELENGTH:20.000;
#SELECTABLE:YES;
#BPMS:0.000=94.960;
#STOPS:;
#BGCHANGES:1.500=nosound.avi=1.000=1=0=0,
127.000=the WORLD.png=1.000=1=0=0,
99999=-nosongbg-=1.000=0=0=0 // don't automatically add -songbackground-
;
// cache tags:
#FIRSTBEAT:3.000;
#LASTBEAT:127.500;
#SONGFILENAME:songs/Otaku's Dream 3rd Anime Mix/[Asahina-san] The WORLD - Death Note 1st OP/The WORLD.sm;
#HASMUSIC:1;
#HASBANNER:1;
#MUSICLENGTH:81.162;
// end cache tags

//---------------dance-single - ----------------
#NOTES:
     dance-single:
     :
     Hard:
     7:
     0.544,0.569,0.074,0.628,0.628,252.000,6.000,51.000,0.000,0.000:
0000
0000
0000
0200
,
0000
0300
0000
0010
0000
0100
1000
0100
1000
0010
0100
0020
0030
0010
0100
0001
,
0100
0001
0000
0200
0300
0010
0100
0001
0100
0010
0000
2000
3000
0010
0100
0000
,
0001
0100
0010
2000
0000
0020
0000
3030
0001
0100
0010
0200
0300
0001
0010
1000
,
0010
0002
0000
2003
3000
0000
0001
0000
0010
0001
0000
0200
0000
0000
0000
0300
,
0000
0010
0100
0002
0000
0000
0000
0003
2000
0000
0000
3020
0000
0000
0130
0000
,
1000
0000
0001
0000
0100
0000
1000
0000
0001
0000
0010
2200
0000
3300
0001
0000
,
0100
0000
1000
0000
0100
0000
0010
0000
0100
0000
1000
2200
0000
3300
0010
0000
,
0001
0000
0010
0000
0100
0000
0010
0000
0100
0000
0100
0220
0000
0330
0010
0000
,
1000
0000
0100
0000
0010
0000
1000
0000
0001
1000
0001
1000
0001
0100
0000
0001
,
0100
0000
0020
0000
0000
0030
0000
0000
0210
0000
0300
0000
0000
0000
0001
0000
,
1000
0000
0010
0000
0100
0000
0001
0000
0100
0000
0001
2000
0000
0000
0001
0000
,
0000
3000
0010
0200
0000
0000
0001
0000
0000
0300
0001
0020
0000
0000
1000
0000
,
0000
0000
1000
0000
0000
0030
1000
0000
0100
0000
0010
0200
0000
0000
0010
0000
,
0000
0010
0320
0000
0230
0000
0301
0010
,
0001
1000
0100
1000
0001
0010
1000
0001
,
1000
0010
0100
0001
0220
0000
0330
0100
,
0020
0000
0000
0030
0002
0000
0000
0000
0203
0000
1000
0320
0000
0000
1000
0000
,
0000
0000
1000
0000
0000
0000
1030
0000
0001
0000
0010
2000
0000
0000
0010
0000
,
0000
0000
0001
0000
0000
3000
0010
0000
0100
0000
0100
0020
0030
0010
0100
0000
,
0001
0000
0100
0010
0000
0001
0010
0000
0100
0000
0000
0010
0000
1000
0001
0010
,
0100
1000
0010
0100
0000
1000
0010
0001
0100
0010
0000
0200
0300
0001
0010
1000
,
0100
0010
0000
0200
0300
0001
0100
0000
0001
0100
0010
2000
0000
0020
0000
3030
,
0010
0100
0001
0200
0300
0001
0100
0010
0100
0020
0030
2000
0000
0000
3010
0000
,
0200
0000
0000
0000
0000
0000
0000
0000
0000
0000
0000
0000
0301
0000
0000
0000
0000
0000
0000
0000
0000
0000
0000
0000
0000
0000
0000
0000
0000
0000
0000
0000
0000
0000
0000
0000
0020
0000
0000
0000
0000
0000
0000
0000
0000
0000
0000
0000
0000
0000
0000
0000
0000
0000
0000
0000
0000
0000
0000
0000
0000
0000
0000
0000
0000
0000
0000
0000
0000
0000
0000
0000
0000
0000
0000
0000
0000
0000
0000
0000
0000
0000
0000
0000
0000
0000
0000
0000
0000
0000
0000
0000
0000
0000
0000
0000
0030
0000
0000
0000
0000
0000
0000
0000
0001
0000
0000
0000
0000
0000
0000
0000
0000
0000
0100
0000
0000
0000
0000
0000
0000
0000
0000
0000
0000
0000
0000
0000
0020
0000
0000
0000
0000
0000
0000
0000
0000
0000
0000
0000
0000
0000
0000
0000
0000
0000
0000
0000
0000
0000
0000
0000
0000
0000
0000
0000
0030
0000
0000
0000
0000
0000
0000
0000
0000
0000
0000
0000
0000
0000
0000
0000
0000
0000
0000
0000
0000
0000
0000
0000
0000
0000
0000
0000
0000
0000
0000
0000
0000
0000
0000
0000
,
0000
0001
0000
0020
0000
0000
0030
0000
0100
0000
0001
1000
0000
0000
0010
0000
,
0100
0000
0000
0001
0000
0000
0000
0000
0000
0020
0000
0000
0000
0000
0000
0000
0000
0000
0000
0000
0000
0000
0000
0000
0032
0000
0000
0000
0000
0000
0000
0000
0003
2000
0000
0000
0000
0000
0000
0000
0010
0000
0000
0000
0000
0000
0010
0000
,
3000
0000
0010
0000
0100
0000
0000
0000
0000
1000
0000
0000
0001
0000
0000
1000
0000
0000
0000
0010
0000
0001
0000
0000
,
0010
0000
0000
0000
1000
0000
0000
0000
0010
0000
0000
0000
0100
0000
0000
0000
0001
0000
0000
0000
0100
0000
0000
0000
0010
0000
0000
0000
0000
0000
0001
0000
0000
0010
0000
0000
0000
0000
0000
0001
0000
0000
0010
0000
0000
0000
0000
0000
,
0100
0010
1000
0010
0000
0001
0010
0000
0001
0010
0010
1000
0000
0100
1000
0000
,
0100
0010
0100
0001
0000
0010
0100
0000
0001
1000
0010
0000
0001
0010
0000
0100
,
0010
0220
0000
0000
0000
0000
0000
0330
;

//---------------dance-single - Copied from----------------
#NOTES:
     dance-single:
     Copied from:
     Challenge:
     11:
     1.000,0.982,1.000,1.000,0.973,308.000,195.000,96.000,0.000,25.000:
0000
0000
0000
0220
,
0000
0000
0000
0000
0000
0000
0000
0000
0330
0000
0000
0000
2200
0000
0000
0000
3300
0000
0000
0000
0022
0000
0000
0033
1000
0000
0000
0000
0010
0000
0000
0000
1000
0000
0000
0000
0010
0000
0000
0000
0100
0000
0000
0000
1020
0000
0000
0000
0030
0000
0000
0000
1000
0000
0000
0000
0100
0000
0000
0000
0001
0000
0000
0000
,
1000
0001
0000
0201
0300
0010
1000
0010
0100
0001
0000
2100
3000
0011
0100
0000
,
0001
0100
0010
2200
0000
0022
0000
3333
1010
0101
1010
0210
0300
0001
0010
1000
,
0010
0022
0000
2200
3333
0000
0001
0000
0110
1001
0000
0220
0000
0000
0000
0330
,
0000
1100
0110
0022
0000
0000
0000
0033
2200
0000
0000
3322
0000
0000
1133
0100
,
1100
0100
0011
1000
0110
0100
1100
0010
0101
1000
0110
2200
0000
3300
0011
0010
,
0110
0100
1100
0100
0110
0001
0110
1000
0110
0001
1100
2200
0000
3300
0110
1000
,
0011
0001
0110
1000
0110
0010
0110
0001
0011
0010
0110
0220
0000
0330
0011
0010
,
1010
0100
0110
0010
0011
0010
1100
1000
0110
0110
0110
0000
1100
1100
0000
0011
,
0011
0000
0000
0000
0000
0000
0220
0000
0000
0000
0000
0000
0000
0000
0000
0330
0000
0000
0000
0000
0000
0000
0000
0011
2200
0000
0000
3300
0000
0000
0000
0000
0000
0000
0000
0000
0000
0000
0000
0000
0000
0000
0011
0000
0000
0000
0000
0000
,
1100
0000
0110
0000
0101
0000
0011
0000
0110
0000
1100
2200
0000
0000
0011
0000
,
0000
3300
0110
0220
0000
0000
1001
0000
0000
0330
0011
0022
0000
0000
1100
0000
,
0000
0000
1100
0000
0000
0033
1100
0000
0110
0000
0011
2200
0000
0000
0011
0000
,
0000
0000
0000
0000
0011
0000
0000
0000
3320
0000
0000
0000
0000
1000
0100
0031
0200
1000
0010
0000
0001
0000
0010
0000
0311
0000
0100
0000
0110
0000
0010
0000
,
0011
0010
1100
0100
0110
0010
0110
0010
0011
0010
0110
0100
1100
0010
0101
0100
,
1010
0100
0110
0010
0110
0100
0011
0010
0220
0000
0000
0000
0330
0000
0220
0330
,
2020
0000
0000
0000
0000
0000
0000
0000
0202
0000
0000
0000
3333
0000
0000
0000
0022
0000
0000
0000
0000
0000
0000
0000
2200
0000
0000
0000
0000
0000
0000
3333
0022
0000
0000
0000
0000
0000
0000
0000
1133
0000
0000
0000
0220
0000
0000
0000
0000
0000
0000
0000
0000
0000
0000
0000
1001
0000
0000
0000
0000
0000
0000
0000
,
0000
0000
1001
0000
0000
0000
1331
0000
0011
0000
0110
2200
0000
0000
0011
0000
,
0010
0000
0011
0000
0010
3300
0220
0330
2200
3300
0110
0220
0330
1010
1010
0000
,
0110
0000
0101
0101
0000
0110
0110
0000
0220
0330
0000
0110
0000
1000
0010
0100
,
0200
0300
0011
0110
0000
1000
0100
0001
0100
1000
0000
0210
0300
0010
0100
1000
,
0100
0010
0000
1200
0300
0011
1100
0000
0011
1100
0011
2020
0000
0202
0000
3333
,
0110
1100
0011
0210
0300
0001
0100
0010
0100
0120
0030
2200
0000
0000
3311
0000
,
0200
0000
0000
0000
0000
0000
0000
0000
0000
0000
0000
0000
0301
0000
0000
0000
0000
0000
0000
0000
0000
0000
0000
0000
0000
0000
0000
0000
0000
0000
0000
0000
0000
0000
0000
0000
2200
0000
0000
0000
0000
0000
0000
0000
0000
0000
0000
0000
0000
0000
0000
0000
0000
0000
0000
0000
0000
0000
0000
0000
0000
0000
0000
0000
0000
0000
0000
0000
0000
0000
0000
0000
0000
0000
0000
0000
0000
0000
0000
0000
0000
0000
0000
0000
0000
0000
0000
0000
0000
0000
0000
0000
0000
0000
0000
0000
3300
0000
0000
0000
0000
0000
0000
0000
0001
0000
0000
0000
0000
0000
0000
0000
0000
0000
0100
0000
0000
0000
0000
0000
0000
0000
0000
0000
0000
0000
0000
0000
0220
0000
0000
0000
0000
0000
0000
0000
0000
0000
0000
0000
0000
0000
0000
0000
0000
0000
0000
0000
0000
0000
0000
0000
0000
0000
0000
0000
0330
0000
0000
0000
0000
0000
0000
0000
0000
0000
0000
0000
0001
0000
0000
0000
0000
0000
0000
0000
0000
0000
0000
0000
0000
0000
0000
0000
0000
0000
0000
0000
0000
0000
0000
0000
,
0001
0000
0000
0000
0000
0000
0010
0000
0000
0000
0000
0000
0100
0000
0000
0000
0000
0000
1000
0000
0000
0000
0000
0000
0010
0000
0000
0000
0000
0000
0000
0000
0000
0000
0000
0000
0120
0000
0000
0000
0000
0000
0000
0000
0000
0000
0000
0000
0000
0000
0000
0000
0000
0000
0000
0000
0000
0000
0000
0000
0000
0000
0000
0000
0100
0000
0000
0000
0000
0000
0000
0000
0030
0000
0000
0000
0000
0000
0000
0000
0000
0000
0000
0000
0000
0000
0000
0000
0100
0000
0000
0000
0000
0000
0000
0000
0000
0000
0000
0000
0000
0000
0000
0000
0000
0000
0000
0000
0000
0000
0000
0000
0100
0000
0000
0000
0000
0000
0000
0000
0000
0000
0000
0000
0000
0000
0000
0000
0120
0000
0000
0000
0000
0000
0000
0000
0000
0000
0000
0000
0000
0000
0000
0000
0030
0000
0000
0000
0000
0000
0000
0000
0000
0000
0000
0000
0000
0000
0000
0000
0011
0000
0000
0000
0000
0000
0000
0000
0000
0000
0000
0000
0000
0000
0000
0000
0000
0000
0000
0000
0000
0000
0000
0000
0110
0000
0000
0000
0000
0000
0000
0000
,
0000
0000
1100
0000
0021
0000
0030
0000
1100
0000
0000
0110
0000
0000
0012
0000
2103
0000
0000
0000
0010
0000
0000
0010
,
3000
0000
0010
0000
0100
0000
0000
0000
1100
0000
0000
0011
0000
0000
1100
0000
0210
0000
0000
0010
0000
0301
0000
0000
,
0110
0000
0000
0000
1000
0000
0000
0000
0010
0000
0000
0000
0110
0000
0000
0000
0001
0000
0000
0000
0100
0000
0000
0000
1010
0000
0000
0000
0000
0000
0011
0000
0000
0011
0000
0000
0000
0000
0000
1100
0000
0000
1100
0000
0000
0000
0000
0000
,
1100
1100
1100
0011
0000
0110
0110
0000
0011
0011
0011
1100
0000
1100
1010
0000
,
0110
0110
0110
1001
0000
0110
1100
0000
0011
1100
0011
0000
0011
0011
0000
1100
,
1100
0022
0000
0000
0000
0000
0000
0033
;

//---------------dance-single - ----------------
#NOTES:
     dance-single:
     :
     Medium:
     5:
     0.313,0.445,0.000,0.111,0.376,169.000,0.000,9.000,0.000,0.000:
0000
0000
0000
0200
,
0000
0000
0000
0000
0000
0000
0000
0000
0000
0300
0000
0010
0000
0000
0000
0000
,
0000
0000
0000
0001
0000
0000
0000
0000
0000
0000
0000
0100
0000
0000
0000
0000
,
0000
0000
1000
0000
0000
0010
0000
0000
0000
0000
0000
0001
0000
0000
0000
0000
,
0100
0000
0000
0010
0000
0000
0000
0000
0010
0000
0000
0100
0000
0000
0000
0000
,
0001
0000
0000
0010
0000
0000
0000
0000
0100
0000
0000
0002
0000
0000
1000
0000
,
0003
0000
0000
0001
0000
0100
0000
0010
,
0000
1000
0000
0100
0000
0010
0000
0100
,
0000
0010
0000
1000
0000
0100
0000
0001
,
0000
0000
0010
0000
0000
0000
0010
0000
0000
0000
0000
0000
0001
1000
0000
1000
,
0001
0020
0000
0000
2030
0000
3000
0010
,
0000
0000
1000
0000
0000
0000
0010
0000
1000
0000
0001
0200
0000
0000
0000
0000
,
0000
0000
0310
2000
0000
0000
0000
0000
0000
3000
0001
0200
0000
0000
0310
0000
,
0000
0000
1000
0000
0000
0000
0010
0000
0100
0000
0001
0100
0000
0000
0010
0000
,
0000
0001
0000
0010
0000
0100
0001
1000
,
0010
0100
1000
0100
0001
0010
0100
1000
,
0100
0010
0001
0100
0001
0000
0000
0010
,
0000
1000
0000
0100
0000
1000
0000
0100
,
0000
0000
0010
0000
0000
0000
0001
0000
0000
0000
0100
0010
0000
0000
0001
0000
,
0000
0000
0100
0000
0000
0000
1000
0000
0000
0000
0010
0100
0000
0000
0001
0000
,
0000
0000
0010
0000
0000
0000
0100
0000
1000
0000
0000
0100
0000
0010
0000
0001
,
0000
0000
0000
0010
0000
0000
0100
0000
0000
0000
1000
0000
0000
0000
0001
0000
,
0000
0000
1000
0001
0000
0000
0010
0000
0000
0000
0100
0001
0000
0000
0010
0000
,
0000
0000
1000
0010
0000
0000
0001
0000
0000
0000
1000
0010
0000
0000
0100
0000
,
0000
0000
0100
0001
0000
0000
0010
0000
0000
0000
0100
1000
0000
0000
0000
0000
,
0000
0000
0000
0001
0000
0000
0000
0000
0000
0010
0000
0000
0000
0000
0000
0000
0000
0000
0000
0000
0000
0000
0000
0000
0000
0000
0000
0000
0000
0000
0000
0000
0000
0000
1000
0000
0000
0000
0000
0000
0100
0000
0000
0000
0000
0000
0100
0000
,
0000
0000
0000
0000
0100
0000
0000
0010
0000
0000
0000
0000
0000
0000
0000
0000
0000
0010
0000
0000
0000
0000
0000
0010
0000
0000
0000
0000
0000
0010
0000
0000
0100
0000
0000
0000
0000
0000
0000
0000
1000
0000
0000
0000
0000
0000
1000
0000
,
0000
0000
0000
0000
1000
0000
0000
0020
0000
0000
0000
0000
0030
0000
0000
0000
0000
0000
0100
0000
0000
0000
0000
0000
0100
0000
0000
0000
0000
0000
0100
0000
0000
0000
0000
0000
0010
0000
0000
0000
0100
0000
0000
0000
0000
0000
0000
0000
,
0001
0000
0000
0000
0010
0000
0000
0000
1000
0000
0000
0000
0010
0000
0000
0000
0000
0000
0000
0000
0001
0000
0000
0000
1000
0000
0000
0000
0000
0000
0010
0000
0000
0100
0000
0000
0000
0000
0000
0001
0000
0000
1000
0000
0000
0000
0000
0000
,
0100
1000
0100
0010
0000
0001
0001
0000
0001
0010
0100
0010
0000
0001
1000
0000
,
0001
1000
0001
1000
0000
0010
0100
0000
0010
0100
0010
0100
0001
1000
0000
0001
,
1000
0002
0000
0003
0000
0000
0000
0000
;

//---------------dance-single - ----------------
#NOTES:
     dance-single:
     :
     Easy:
     2:
     0.151,0.154,0.000,0.049,0.166,82.000,0.000,4.000,0.000,0.000:
0000
0000
0000
0200
,
0000
0000
0000
0000
0000
0000
0000
0000
0300
0000
0000
0010
0000
0000
0000
0000
,
0000
0000
0000
0100
0000
0000
0000
0000
0000
0000
0000
0010
0000
0000
0000
0000
,
0000
0000
0000
1000
0000
0000
0000
0000
0000
0000
0000
0001
0000
0000
0000
0000
,
0000
0000
0000
0010
0000
0000
0000
0000
0000
0000
0000
0100
0000
0000
0000
0000
,
0000
0000
0000
0010
0000
0000
0000
0000
0000
0000
0000
0000
0000
0000
0010
0000
,
0000
0100
0000
1000
0000
0100
0000
0010
,
0000
0100
0000
0010
0000
0001
0000
1000
,
0000
0001
0000
1000
0000
0100
0000
0001
,
0000
1000
0000
0001
0000
0000
1000
0000
,
0001
0100
0000
0000
0000
0000
0000
0100
,
0000
0010
0000
0100
0000
0001
0001
0000
,
0000
1000
1000
0000
0000
0010
0010
0000
,
0000
0100
0100
0000
0000
0001
0001
0000
,
0000
0001
1000
0002
,
0013
0000
1000
0000
,
0100
0000
0000
0000
0000
0000
0000
0000
0020
0030
0000
0000
0000
0000
1000
0000
,
0000
0100
0000
0010
0000
0001
0000
0010
,
0000
1000
0000
0100
0000
0001
0000
0001
,
0000
0000
0000
1000
0001
0001
1000
0000
,
0000
0000
0000
0000
,
0000
0000
0000
0010
0000
0000
0000
0000
0000
0000
0000
0100
0000
0000
0000
0000
,
0000
0000
0000
0001
0000
0000
0000
0000
0000
0000
0000
1000
0000
0000
0000
0000
,
0000
0000
0000
0010
0000
0000
0000
0000
0000
0000
0000
0100
0000
0000
0000
0000
,
0000
0000
0000
0001
0000
0000
0000
0000
0000
0000
0000
1000
0000
0000
0000
0000
,
0000
0000
0000
0010
0000
0000
0000
0000
0000
0000
0000
0100
0000
0000
0000
0000
,
0000
0000
0000
0001
0000
0000
0000
0000
0000
0000
0000
1000
0000
0000
0000
0000
,
0000
0000
0000
0000
0000
0000
0000
0000
0000
0010
0000
0000
0000
0000
0000
0000
0000
0000
0000
0000
0000
0000
0000
0000
0000
0000
0000
0000
0000
0000
0000
0000
0000
1000
0000
0000
0000
0000
0000
0000
0100
0000
0000
0000
0000
0000
0000
0000
,
0010
0000
0000
0000
0000
0000
0000
0000
0001
0000
0000
0000
0000
0000
0000
0000
1000
0000
0000
0000
0000
0000
0000
0000
0100
0000
0000
0000
0000
0000
0010
0000
0000
0001
0000
0000
0000
0000
0000
0200
0000
0000
0000
0000
0000
0000
0000
0000
,
0000
0000
0000
0000
,
0000
0000
0000
0000
,
0000
0300
0000
0000
;

//---------------dance-single - Copied from----------------
#NOTES:
     dance-single:
     Copied from:
     Beginner:
     1:
     0.111,0.135,0.000,0.012,0.154,62.000,0.000,1.000,0.000,0.000:
0000
0000
0000
0100
,
0000
0000
0000
0000
0000
0000
0000
0000
0000
0000
0000
0010
0000
0000
0000
0000
,
0000
0000
0000
0100
0000
0000
0000
0000
0000
0000
0000
0010
0000
0000
0000
0000
,
0000
0000
0000
1000
0000
0000
0000
0000
0000
0000
0000
0001
0000
0000
0000
0000
,
0000
0000
0000
0010
0000
0000
0000
0000
0000
0000
0000
0100
0000
0000
0000
0000
,
0000
0000
0000
0010
0000
0000
0000
0000
0000
0000
0000
0000
0000
0000
0010
0000
,
0000
0000
0000
1000
0000
0000
0000
0010
,
0000
0000
0000
1000
0000
0000
0000
0001
,
0000
0000
0000
1000
0000
0000
0000
0001
,
0000
0000
0000
0100
0000
0000
1000
0000
,
0001
0100
0000
0000
0000
0000
0000
0100
,
0000
0010
0000
0100
0000
0001
0000
0000
,
0000
1000
0000
0000
0000
0010
0000
0000
,
0000
0000
0100
0000
0000
0000
0000
0000
0000
0000
0000
0001
0000
0000
0000
0000
,
0000
0001
1000
0001
,
0010
0000
1000
0000
,
0100
0000
0000
0000
0010
0000
0000
1000
,
0000
0000
0000
0010
0000
0000
0000
0001
,
0000
1000
0000
1000
0000
0001
0000
0100
,
0000
0000
0000
1000
0000
0001
0000
1000
,
0000
0000
0000
0000
,
0000
0000
0000
0010
0000
0000
0000
0000
0000
0000
0000
0100
0000
0000
0000
0000
,
0000
0000
0000
0001
0000
0000
0000
0000
0000
0000
0000
1000
0000
0000
0000
0000
,
0000
0000
0000
0010
0000
0000
0000
0000
0000
0000
0000
0100
0000
0000
0000
0000
,
0000
0000
0000
0001
0000
0000
0000
0000
0000
0000
0000
1000
0000
0000
0000
0000
,
0000
0000
0000
0010
0000
0000
0000
0000
0000
0000
0000
1000
0000
0000
0000
0000
,
0000
0000
0000
0001
0000
0000
0000
0000
0000
0000
0000
1000
0000
0000
0000
0000
,
0000
0000
0000
0010
0000
0000
0000
0000
0000
0000
0000
1000
0000
0000
0000
0000
,
0000
0000
0000
0000
0000
0000
0000
0000
0000
0000
0010
0001
0000
0200
0000
0000
,
0000
0000
0000
0000
,
0000
0000
0000
0000
,
0000
0300
0000
0000
;
